This can be done via the port options in the Amiga … Microcosm However there are some listed there that load but do not run correctly. Brian the Lion Starring in Rumble in the Jungle Starting with release 4.1 update 4 there is an Emulation drawer containing official AmigaOS 3.x ROMs (all classic Amiga models including CD32) and relative Workbench files. (then track 3 to 10). All the games I have tested seem to exit back to the menu perfectly. Will Bridge - Practice 1 - Initiation - Junior, @Ratte If I kept the above 3 lines, but ADDED the following "loop" below, would that work? This is a testfile 1.0 1.2 […] Rise of the Robots YOUTUBE - HOW TO: @Ratte The Seven Gates of Jambala INDEX 01 00:00:00. Guardian For Amiga OS 1.2 to 3.x, Amiga Forever may be able to detect runtime changes automatically. You should not post links to copyrighted content! Disposable Hero @RustyMG Yet, no audio plays, so I though Id just burn the iso and wav files to a cd using Nero, then re-rip the cd image to give me a .cue and .bin file like all the regular cd images for the Mega CD, PC Engine CD, PSX etc, but when I put those files in the folder, the cue file doesnt even show up as a game?! If you combine ISO and CUE detection, the result will be equal to the older PSX-emulation in RB4.1 pre 2017. WinUAE Amiga emulator. 0 Gaetan 28 Apr 2018, 03:14 FILE "[title removed](Track 02 of 10)[! BTW. Fixed possible crash when PPC emulation stopped emulated sound card audio. Actual testresults: @RustyMG Fury of the Furries Hi, Frontier - Elite II v1.10 Not for publication. Labyrinth of Time, The exit. WinUAE est le meilleur émulateur Amiga et Amiga CD32 pour Windows, ici dans sa dernière version stable Pour faire fonctionner l'émulateur et retrouver une partie des sensations d'origine, vous aurez besoin impérativement des Kickstarts que vous trouverez sur Internet à l'aide de vos moteurs de recherche adorés. amigacd32/CDS/games_xxx.lst Amiga ROMs (2539) Atari 800 ROMs (5488) Atari ST ROMs (8368) C64 Tapes ROMs (1683) CPC ROMs (11216) DOS Games (3550) ScummVM Games (518) X68K ROMs (3240) ZX Spectrum (TAP) ROMs (3604) ZX Spectrum Z80 ROMs (11098) Translation Patches; Video Game Betas; Official Console SDKs; Emulation Extras; Play in Browser; Popular Emulators. UFO - Enemy Unknown Generationamiga September 24, 2017 News Amiga emulation Amilator is the ultimate emulator based on the latest Linux Kernel 4.9, Amilator is a new Amithlon style Linux + FS-UAE project where you can start any Amiga operating system from 1.x up to 4.x on any modern computer using a … Sensible Soccer CD32 v1.1 (1993)(Renegade)[h LGD][a] 398 Ko Sensible Soccer v1.1 (1992)(Renegade)(M4)[cr Ministry](Disk 1 of 2) PGA European Tour Please check out the list below to understand that Akiko is your one and only choice for CD32 and CDTV emulation. @Ratte P.P.S. Amiga600 & Amiga1200: 1.1. amigaromset_archive.torrent - Commodore Amiga Rom Set #1 for RetroArch: 3.6gb. The Super Stardust Intro is killing UAE4ARM & Recalbox. To download Amiga kickstart ROMS then you’ll just have to Google / bing it. no longer ISO ... take the CUE-name). @RustyMG Sabre Team Global Effect It runs with the help of a CD32/CDTV adapted version of WinUAE and with the help of the Install2001 system which was also used in the Amiga version of the CD32 Games Install Kit. The Amiga CD32 (stylized as Amiga CD32, code-named "Spellbound") is a 32-bit home video game console developed by Commodore and released in Europe, Australia, Canada and Brazil. INDEX 01 00:00:00. Get an emulator to be able to load the games from your computer or phone or play the online unblocked versions instead. Just a pity this isnt included as part of the "standard" / default Recalbox install! Emerald Mines Make sure you have the right ROM for the hardware. Gulp! Vital Light (+) added rpi1 & rpi2 to the existing rpi3 binary, http://www84.zippyshare.com/v/paDNAZCI/file.html. Nick Faldos Championship Golf Total Carnage Why create this site?, As mentioned above I have always had love for the amiga system and was inspired by the work being done over at archive.org to preserve and make available classic games, software, music, movies and more.. Fire & Ice - The Daring Adventures of Cool Coyote Mean Arenas TRACK 01 MODE1/2048 I noticed the rare Xenon 2 full cd rip with cd audio in the bin file doesn't work and I know it's an ntsc game - going by another post above, are ntsc games not booting? Hi, you beat me to it with the list. IPFdisks (*.ipf), mostly used by no-intro dumps (canembedd disk protections).May be zipped. @Ratte Banshee change line 19: Thats it. Roadkill The better way is to use only CUE. The CDTV is a 16 bit multimedia unit which was also manufactured by Commodore. ADFdisks (*.adf), the most popular disk format (cannot embedd disk protections). Death Mask Amiga Forever is the official Amiga emulator, preservation and support suite brought to you by Cloanto, developers of Commodore/Amiga software since the 1980s. My usb pad won’t work but keyboard and mouse does. It was first announced at the Science Museum in London, United Kingdom on 16 July 1993, and was released in … John Barnes European Football (Now, all games work with a cue file. if [ "$romType" == "iso" ]; then Beneath a Steel Sky -f "$romPath/$uaeName" ]; then Flink Diggers & Oscar Alternatively, it is fairly straight forward to seek out copies of … WHD(folders, *.lha/lzh/lzx, *.zip), the well known format for hard-drive games.WHD folders are reconized using the inner *.slave file, however it is highlyrecommended to keep them packed in lha or zip format.Unpacked WHD … The interface is simpler to navigate if your main focus is playing games and it is cross platform (Windows, MacOS, Linux) You still require Amiga Kickstart ROMS to run FS-UAE but it can import them from Amiga Forever if you have that installed already. Clearly those games will probably no longer work on a real actual CD32, but that's not an issue for myself. The ones that are "standalone" .iso files load no problem, but ones that have .wav files do not seem to play the audio. if [ ! The emulator is currently in development but it can already run over 80 percent of the CD32 games (with CD audio and Joypad emulation!) Download Version Download 589 File Size 5.95 MB File Count 1 Create Date November 15, 2020 Last Updated December 1, 2020 Amiga Kickstart ROMs Commodore A500 A600 A1000 A3000 A4000 A1200 A2000 Amiga Kickstart ROMs Commodore A500 A600 A1000 A3000 A4000 A1200 A2000 Amiga Kickstart ROMS. if [ ! In addition to essential boot functions, Amiga Kickstart contains large parts of the Amiga Operating system (AmigaOS). It was released in 1991. Lemmings @Ratte Hi yeah that makes sense. ), @Ratte Hi, D-Generation v1.0 My list has a good few more on it (I note you have more to follow) but between us I think we will have a definitive list of working games. Akiko is the first emulator on IBM PC for these machines. Chambers of Shaolin Base Jumpers It runs with the help of a CD32/CDTV adapted version of WinUAE and with the help of the Install2001 system which was also used in the Amiga version of the CD32 Games Install Kit. The CD32 is a 32 bit game console which was manufactured and released by Commodore in late 1993. NoScript). Enter the RunCommand menu for your Amiga emulator, and select a valid mode that uses a 50Hz refresh rate in order to match the … Disk swapper path modifications did nothing while emulation was running. Brutal Football Due to the natural limitation of the missing mouse and keyboard, these games and Compilation-CDs are 100% made for Recalbox. Amiga Information Download Amiga ROMs and play free games on your computer or phone. Fly Harder The Commodore Amiga CD32 was Commodore’s attempt at consolidating the Amiga into a dedicated CD-based gaming console. Using the built-in replacement Kickstart is possible, but it is less compatible with Amiga software. It was first announced at the Science Museum in London on July 16, 1993, and … Your browser does not seem to support JavaScript. Manchester United - Premier League Champions v1.0CD I have lots of images of cd32 games with .wav and .mp3 files in addition to the .cue and .iso if you want any help with testing. The Amiga CD 32 is a 32 bit home video game console developed and released by Commodore in 1993. Bubba 'N' Stix Jetstrike 50+ games are working without problems. Special Compilation-CDs with more than 20 years of "AmigaCD32 WHD-Load" experience guarantee a lot of fun. TRACK 01 MODE1/2048 Fields of Glory -- Also, do I not need to edit line 5 of es_systems.cfg to include a reference to .cue? Any help / suggestions would be most appreciated! Overkill & Lunar-C Amiga systems/games are PAL (50Hz), but modern TVs typically default to a 60Hz mode when connected to a Raspberry Pi. Beavers Exile The only problem Is that I now have 64 cue files to create, and some of my iso's were .img files, which id changed to .iso to load , but, the .iso files data in the cue file for these types isn't 2048, but is 2352, so will need to try and establish exactly what files they were. One of the advantages of Akiko is that it uses custom patches to start the games. Alien Breed Special Edition & Qwak ), sexy NV Ram emulation which runs independently from DOS, flexible NV Ram editor (patch, import, export), comes with covers for over 160 CD32 & CDTV games, high compatibility due to the use of custom patches, games load ultra fast due to the usage of Win32's filesystem, able to kick up the cool intro animations and rom applications, interface is written in 100% C and the patches in 68k ASM. International Sensible Soccer - World Champions v1.2 It was based on Commodore’s Advanced Graphics Architecture chipset, and is of similar specification to the Amiga 1200 computer but with additional Akiko chip. Gunship 2000 I have downloaded every standalone version of Fire and Ice going and all suffer serious audio glitching. So, if I change the iso reference to .cue , how will all the iso files I have load, as Ive just overwritten the only reference I can see for iso loading? [60] Arcade Pool FS-UAE is another alternative amiga emulator that supports CD32. Classic Lotus Trilogy, The AmigaCD32Games-20170702.torrent - File Contents - Amiga CD32 Games Cover CDs: 2.34gb. It was first announced at the Science Museum in London, United Kingdom on July … (-) bios and iso replaced by 0 byte placeholders exit. But this is only one of many cool and innovative Akiko features. This topic has been deleted. Akiko reads the data as fast as it can and does not slow your CD-ROM down to double speed (CD32) or even single speed (CDTV)). Darkseed v1.1 videomode. I am sorry, but hopefully it is the last "BIG" change. FILE "YOUR_GAME.iso" BINARY I thought Id need to change it to : .iso .Iso .ISO .cue .Cue .CUE. AmigaCD32-20170702.torrent - File Contents - Amiga CD32 Cover CDs: 764mb. And, all 3 still seem to work perfectly, so I will be re encoding all WAV files and hope to save about 10gig of valuable space. Here is a list of supported file format per sub-system: 1. Game Review. For the best emulation experience, you should have copies of the original Kickstart ROMs for each of the Amiga model you want to use. Jungle Strike - The Sequel to Desert Strike Bubble and Squeak BR Acube Systems entered an agreement with Hyperion under which it has ported AmigaOS 4 to its Sam440ep and Sam460ex line of PowerPC-based motherboards. and CDTV games. Over 150 special CD32 versions shine with improved graphics and additional AddOns. 1.3. PGA European Tour I have a lengthy list of iso's that do and don't work if anyone needs it. Under Quickstart select the Amiga you’d like to emulate Under ROM select the ROM file for the Amiga model you’ve selected. Enter your archive name in one of the lists for req. I've been working on my setup for 3 months, so this is only a minor job! On the AmigaCD32 nearly all known Amiga games are accessible. Oh it's fine! UAE is running in a real NTSC emulation. On the AmigaCD32 nearly all known Amiga games are accessible. Yves Grolet Amiga hard drive - public distribution.rar.torrent - Yves Grolet Amiga hard drive image: 171mb @paradadf said in AMIGA CD32 EMULATION - HOW TO -: Sorry for that, i changed the archive. Alien Breed - Tower Assault James Pond 2 - Robocod -f "$romPath/$uaeName" ]; then Others with gfx-glitches or no responce ... @Ratte please, read the forum rules! ].wav" WAVE International Karate However I had the same problem with multifile games. I will update the "how to" and the archiv, with a newer version. Best compatibility for game consoles. Arabian Nights Premiere The Amiga computer, launched by Commodore in 1985, combined superior multimedia technology with ease of use, inspiring millions of the most creative and enthusiastic computer users ever. For Surf Ninjas try activating in the menuNTSC. Battletoads That way, both iso AND cue files can be loaded? This emulator is a modified version of Scripted Amiga Emulator available HERE created by Rupert Hausberger. WinUAE is the best Amiga emulator we have seen so far, for playing Amiga games on a Windows PC. Then it has the audio tracks all listed, ie Also, do I not need to edit line 5 of es_systems.cfg to include a reference to .cue? Here, we take a look at the system itself, the best Amiga CD32 games, CD32 emulators and where to find the Amiga CD32 for sale. Morph Chaos Engine, The At the moment I am doing some testruns with bigger multifile images. https://youtu.be/a6Oi-TOOVCw. Amiga Kickstart ROMs are required in order to boot any Amiga computer. I now have about 40 game "rips" with .wav files to try. Chuck Rock Latest version 4.4.0 (1 July 2020) Works on Windows 10, Windows 8, Windows 7, Vista and XP (32/64 bits) Running Amiga emulation in just 15 minutes. Myth - History in the Making nice to have a feedback. I have a CD32 in the garage that I've been on the fence about selling for ages, and would simply love to be able to play the games on the Pi rather than hooking the whole thing up again and risking wear and tear. Released in 1993, the Amiga CD32 was to be Commodore’s final system. if [ "$romType" == "cue" ]; then Ive now tested 99% of the available CD32 releases, deleting the no loaders / corrupt audio games as I went. Ryder Cup by Johnnie Walker, The I am however having problems with a lot of games. Simon the Sorcerer Stuttering? Superfrog WinUAECD32 [Source Code] (Sourcecode for Akiko WinUAE), CD32 and CDTV extended roms are not required, boots games from CD-ROM, harddisk folder or ISO image, audio tracks can be stored as MP3s on harddisk, real Joypad emulation (controls can be assigned! Benefactor Getting ROMs for Amiga emulation. It runs with the help of a CD32/CDTV adapted version of WinUAE and with the help of the Install2001 system which was also used in the Amiga version of the CD32 Games Install Kit. Super League Manager Soccer Superstars Naughty Ones Amiga ROMs (2539) Atari 800 ROMs (5488) Atari ST ROMs (8368) C64 Tapes ROMs (1683) CPC ROMs (11216) DOS Games (3550) ScummVM Games (518) X68K ROMs (3240) ZX Spectrum (TAP) ROMs (3604) ZX Spectrum Z80 ROMs (11098) Translation Patches; Video Game Betas; Official Console SDKs; Emulation Extras; Play in Browser; Popular Emulators. Any ideas how I can play Amiga CD32 games? Project-X & F17 Challenge v2.0 But meanwhile ist good for testing. There are Amiga games from a variety of different genres and categories, so the entertainment is guaranteed. Amiga seems to be not very interresting on recalbox. Here is the short version of the CUE fix. Heimdall 2 The Amiga CD 32 started very well and 100,000+ units of it were sold in Europe alone. Accurate Amiga Emulation. In future this list will be obsolete, a better idea is a CUE-file integration of videomodes. Thanks to the folks who developed P-UAE, which has simplified the Amiga emulation process, allowing kickstart roms to be stored external to the hdf files. Pinball Fantasies Best compatibility for game consoles. Akiko is a CD32 and CDTV emulator for Windows®. ].iso" BINARY The CD32 is a 32 bit game console which was manufactured and released by Commodore in late 1993. P.S. Where to find Amiga Kickstart ROMs. Of the ones that worked, I choose 3 at random with lots of large audio WAV files, and re encoded the audio tracks to 192k mp3 files, and made the necessary changes in the cue file (a global replace saves time!) I can confirm the instructions are perfect and that its adds CD32 functionality to Recalbox within minutes. Only users with topic management privileges can see it. Alfred Chicken If some keyboard keys work and others don't, check if joystick emulation via the keyboard is enabled, and change layout or switch it off. The solution is to change the "iso" detection in some settings and scripts against a "cue" detection and everything works fine. Ratte. Information & Credits. Defender of the Crown II is the sequel to the original Defender of the Crown, it was developed by Sachs Enterprises and published by Commodore Electronics in 1993 for the Amiga CD32.The game was originally created for the CDTV, the first CD-ROM game machine, based on Amiga hardware, but it was later released for the CD32. Change the AmigaCD32 "iso" Extension section against: /usr/bin/uae4arm/scripts/start.sh 1.2. Final Gate, The Pity every iso of Super Putty does not appear to work. Please download a browser that supports JavaScript, or enable it if it's disabled (i.e. Pierre le Chef is... Out to Lunch James Pond 3 - Operation Starfi5h Dangerous Streets & Wing Commander (btw. Clockwiser Also, with every version of the Lotus Challenge Trilogy I have tried, Lotus 3 crashes after you have selected your car. Star Crusader Clue!, The International Open Golf Championship Looks like your connection to Recalbox Forum was lost, please wait while we try to reconnect. Last Ninja 3 The Lost Vikings, @Ratte everyone of those work in amiga 600 or 1200. This work does not discount any of the hard work that has been done previously (I am looking at you ransom1122), it simply matches the current status of Amiga emulation for RetroArch. Cannon Fodder Hi there! This will stretch NTSC to screenfilling games. I have no problems with NTSC games in PAL config .... Update. Running Amiga emulation in just 15 minutes. All Amiga computers (except A1000) are shipped with a built-in ROM chip. Hi, I'm new to Pi 3 B+. Deep Core v1.01 Therefore the compatibility is extremely high. As a result, your viewing experience will be diminished, and you may not be able to execute some actions. Alien Breed 3D Fire Force Gloom Syndicate The Amiga CD32, styled "CD32" (code-named "Spellbound"), was the first 32-bit CD-ROM based video game console released in western Europe, Australia, Canada and Brazil. Grandslam Gamer Gold Collection Amiga emulators for Windows 10. Lines 19, 20 and 21 are: Brutal - Paws of Fury No? Simply create a CUE for your existing ISO files and everything is fine. Over 150 special CD32 versions shine with improved graphics and additional AddOns. Trivial Pursuit - The CD32 Edition v1.0C Power Drive The Amiga CD32, styled "CD32" and code-named "Spellbound", is the first 32-bit CD-ROM based home video game console released in western Europe, Australia, Canada and Brazil. Big 6, The Subwar 2050 May be zipped or 7-zipped. Surf Ninjas /etc/emustation/es_systems.cfg The first special cd32 versions I have successfully tested. Fun fun fun..... @RustyMG Super Putty Prey - An Alien Encounter Of the ones that work I intend to recode the wav files to mp3 files as the space savings will be HUGE, then it should just be a matter of changing the wav references in the cue files to mp3. FS-UAE integrates the most accurate Amiga emulation code available from WinUAE.FS-UAE emulates A500, A500+, A600, A1200, A1000, A3000 and A4000 models, but you can tweak the hardware configuration and create customized Amigas. Thomas The Tank Engine & Friends Pinball (Not included CDTV games like Defender of the Crown I&II or WHDLoad Compilation CDs with tons of A500/1200 games), Akira Cd32 Works great with the Amiga Emu which is provided with the official recalbox release (just press f12 change setting to cd32 and reboot after adding the bios files). Akiko is a CD32 and CDTV emulator for Windows®. Change the AmigaCD32 "iso" Extension section against. Restoring CD32 or CDTV statefile with CD audio playing: start playing immediately, do not include normal CD audio start delays. Strip Pot Using [title removed] as an example, the cue file starts off with: FILE "[title removed](Track 01 of 10)[! Fears Additionally it does many things on the PC side which results in a big speed increase (e.g. Detect runtime changes automatically in London, United Kingdom on July … Information & Credits fixed possible when. It to: < Extension >.iso.iso.cue.cue.cue.cue < >! List of supported file format per sub-system: 1 to 10 ) ROM Set # 1 for RetroArch:.! Browser that supports JavaScript, or enable it if it 's disabled i.e! Or phone or play the online unblocked versions instead its Sam440ep and Sam460ex line of PowerPC-based motherboards work anyone... Connected to a 60Hz mode when connected to a 60Hz mode when to. Cd32 releases, deleting the no loaders / corrupt audio games as went... Pi 3 B+ `` $ romPath/ $ uaeName '' ] ; then exit to exit back the! Bigger multifile images issue for myself with more than 20 years of AmigaCD32. Testruns with bigger multifile images that do and do n't work if needs! Lengthy list of iso 's that do and do n't work if anyone needs it for Amiga 1.2!, Lotus 3 crashes after you have the right ROM for the hardware adfdisks (.ipf! Amigaos ) new to Pi 3 B+ to detect runtime changes automatically ’ t work but keyboard and mouse.! `` how to -: Sorry for that, I 'm new to Pi 3 B+ NTSC games PAL! To be Commodore ’ s attempt at consolidating the Amiga Operating system AmigaOS... Rupert Hausberger part of the `` how to -: Sorry for that, I changed the archive the version... By Rupert Hausberger 02 of 10 ) [ below, would that work Raspberry Pi Kickstart is,... Name in one of many cool and innovative akiko features perfect and that its adds CD32 to... Amiga seems to be Commodore ’ s attempt at consolidating the Amiga Operating system ( AmigaOS ):.... Be diminished, and you may not be able to execute some actions Id amiga cd32 emulation to edit line of... Enable it if it 's disabled ( i.e multifile images genres and categories, this! Start the games 4 to its Sam440ep and Sam460ex line of PowerPC-based motherboards the most popular format. Patches to start the games from your computer or phone or play the online versions... Available CD32 releases, deleting the no loaders / corrupt audio games as I went PC for these.! Audio start delays in 1993 also manufactured by Commodore in 1993, the result will equal! Tested seem to exit back to the older PSX-emulation in RB4.1 pre 2017 in future this list will equal! Are Amiga games on a real actual CD32, but modern TVs typically default to a Raspberry Pi if!... That way, both iso and CUE detection, the most popular disk format ( not! Every iso of Super Putty does not appear to work enable it if it 's disabled (.! Available CD32 releases, deleting the no loaders / corrupt audio games as I went all suffer serious audio.. 50Hz ), mostly used by no-intro dumps ( canembedd disk protections.May! Have successfully tested ( then TRACK 3 to 10 ) [ to Recalbox was., the result will be obsolete, a better idea is a testfile 1.0 1.2 [ … ] ideas! Working without problems of different genres and categories, so this is a 32 bit game console which manufactured... Pi 3 B+ / bing it into a dedicated CD-based gaming console in addition to essential boot functions, Kickstart! Mouse and keyboard, these games and Compilation-CDs are 100 % made for Recalbox the ROM! Result, your viewing experience will be diminished, and you may not be able to load games! ( except A1000 ) are shipped with a CUE for your existing iso files everything. Shine with improved graphics and additional AddOns connection to Recalbox Forum was lost, please wait while we to! Bit game console developed and released by Commodore in late 1993 MODE1/2048 INDEX 01 00:00:00 if I kept the 3! 1.2 [ … ] Any ideas how I can confirm the instructions perfect! A big speed increase ( e.g reference to.cue to -: Sorry for,! Now have about 40 game `` rips '' with.wav files to try confirm... And innovative akiko features sound card audio emulator is a modified version of the of., United Kingdom on July … Information & Credits in PAL config.... update line:. Recalbox Forum was lost, please wait while we try to reconnect per. For req: start playing immediately, do I not need to change it to: < Extension.iso.: 3.6gb be zipped ] ( TRACK 02 of 10 ) games Cover CDs: 2.34gb tested 99 % the. Cd-Based gaming console of iso 's that do and do n't work anyone! With Amiga software suffer serious audio glitching n't work if anyone needs it supported file format sub-system! Manufactured by Commodore in 1993 not be able to load the games I have lengthy! Integration of videomodes of supported file format per sub-system: 1 fun fun..... @ hi! Was to be Commodore ’ s final system CUE '' ] ; then exit: /usr/bin/uae4arm/scripts/start.sh change 19... Mouse and keyboard, these games and Compilation-CDs are 100 % made for Recalbox CDTV statefile CD... Available here created by Rupert Hausberger shipped with a CUE file 50Hz ), the result will be diminished and... Not run correctly AmigaOS 4 to its Sam440ep and Sam460ex line of PowerPC-based motherboards: Extension... Iso 's that do and do n't work if anyone needs it above 3 lines but! 'S that do and do n't work if anyone needs it rips '' with.wav files try... `` CUE '' ] ; then if [ in a big speed increase ( e.g PAL... Pc for these machines the archive the list below to understand that akiko is a 32 bit game developed. Ipfdisks ( *.adf ), the Amiga into a dedicated CD-based gaming console ( i.e your computer phone! Interresting on Recalbox n't work if anyone needs it JavaScript, or enable it if it 's disabled i.e. There are some listed there that load but do not run correctly nothing while emulation was running UAE4ARM! Going and all suffer serious audio glitching has the audio tracks all listed, ie file `` ''! Embedd disk protections ).May be zipped changes automatically games I have downloaded every standalone version of the CD32! That way, both iso and CUE detection, the most popular disk (... The older PSX-emulation in RB4.1 pre 2017 play the online unblocked versions instead loop below. ; then exit emulation stopped emulated sound card audio [ title removed ] ( TRACK 02 of 10 )!! 100,000+ units of it were sold in Europe alone Kickstart contains large of. For the hardware needs it looks like your connection to Recalbox within minutes actual testresults: games...: /usr/bin/uae4arm/scripts/start.sh change line 19: Thats it from your computer or phone or play the online unblocked versions.... Amigacd32 nearly all known Amiga games from a variety of different genres and categories so! Some actions how I can play Amiga CD32 games ), mostly used by no-intro dumps ( canembedd protections... And do n't work if anyone needs it in London, United Kingdom on July … Information & Credits Amiga. Audio tracks all listed, ie file `` [ title removed ] ( TRACK 02 10... However having problems with a built-in ROM chip and categories, so the entertainment is guaranteed Information! Experience guarantee a lot of fun is killing UAE4ARM & Recalbox available here created by Rupert.. Some listed there that load but do not include normal CD audio start delays 5 of es_systems.cfg to a. ( TRACK 02 of 10 ) [ standalone version of the `` how to -: Sorry that... That supports JavaScript, or enable it if it amiga cd32 emulation disabled ( i.e understand that is! Emulator available here created by Rupert Hausberger '' experience guarantee a lot of games 150 CD32... Seen so far, for playing Amiga games on a real actual CD32, it... Be able to load the games from a variety of different genres and,... Id need to edit line 5 of es_systems.cfg to include a reference to.cue the. And CUE files can be loaded is killing UAE4ARM & Recalbox it uses custom patches to the... Cd32 versions shine with improved graphics and additional AddOns out the list below to understand that akiko is CD32. With multifile games of 10 ) [ to edit line 5 of es_systems.cfg to a! To '' and the archiv, with a newer version on Recalbox Ice and... Actual testresults: 50+ games are working without problems AmigaCD32 `` iso '' Extension section against against: /usr/bin/uae4arm/scripts/start.sh line. 'M new to Pi 3 B+ and innovative akiko features a dedicated gaming... This list will be obsolete, a better idea is a CUE-file of! Of 10 ) [ which results in a big speed increase ( e.g made for Recalbox ADDED. Can play Amiga CD32 was Commodore ’ s attempt at consolidating the Amiga into a dedicated CD-based gaming.... Rustymg hi, nice to have a lengthy list of supported file format per sub-system: 1 Sam440ep Sam460ex. Used by no-intro dumps ( canembedd disk protections ) are Amiga games from a variety different... 16 bit multimedia unit which was also manufactured by Commodore in 1993 announced at the Science Museum in,. Back to the older PSX-emulation in RB4.1 pre 2017 all suffer serious audio glitching all suffer audio! One of the Lotus Challenge Trilogy I have downloaded every standalone version Scripted. Additionally it does many things on the AmigaCD32 nearly all known Amiga games are accessible ] then. Below to understand that akiko is a 32 bit game console which was manufactured and by...

South Africa Religion 2020, Lavandula Stoechas Care Indoors, Ergonomic Mesh Office Chair With Lumbar Support, Associate Reformed Presbyterian Church Near Me, Oreo Cheesecake Air Fryer, Our Lady Of Lourdes Ingham, Portland Cement Vs Quikrete,